#TITLE:The Beginning;
#SUBTITLE:Yo dick half staff, It needs work;
#ARTIST:Dj Doo;
#TITLETRANSLIT:;
#SUBTITLETRANSLIT:;
#ARTISTTRANSLIT:;
#CREDIT:;
#BANNER:begbn.jpg;
#BACKGROUND:begbg.jpg;
#LYRICSPATH:;
#CDTITLE:bmx0ant.png;
#MUSIC:The Beginning.mp3;
#OFFSET:0.668;
#SAMPLESTART:37.540;
#SAMPLELENGTH:11.840;
#SELECTABLE:YES;
#BPMS:0.000=132.300;
#STOPS:;
#BGCHANGES:;
// cache tags:
#FIRSTBEAT:4.000;
#LASTBEAT:264.000;
#SONGFILENAME:Songs/Music V.I.P ^_^/The Beginning/The Beginning.sm;
#HASMUSIC:1;
#HASBANNER:1;
#MUSICLENGTH:120.692;
// end cache tags

//---------------dance-single - C. Foy----------------
#NOTES:
     dance-single:
     C. Foy:
     Challenge:
     12:
     1.000,1.000,1.000,1.000,1.000,956.000,611.000,142.000,0.000,279.000:

0000
0000
0000
0000
,
1010
0100
1000
0001
0110
0001
0100
0010
0101
1000
0001
1000
0101
0010
0001
0100
,
0011
0100
1000
0001
1010
0001
0100
0001
1010
0001
0100
0010
1100
0001
1000
0001
,
0110
0001
1000
0100
1001
0100
0010
0001
1010
0001
0100
1000
0011
0100
0001
1000
,
0011
0100
0001
1000
0011
0100
0001
1000
0110
0001
1000
0001
1110
1000
0010
0100
,
1011
0100
1000
0001
0110
0001
1000
0100
1010
0001
0100
0001
1100
0010
0100
0001
,
1010
0100
0001
0010
1001
0100
0001
0010
0101
1000
0010
0001
0110
1000
0100
0010
,
0101
1000
0100
1000
0101
0010
0001
1000
0110
0001
0010
0100
0011
1000
0001
0000
,
2010
0000
0000
0000
0000
0000
0000
0000
0000
0100
0000
0000
0000
0000
0000
0000
0000
0000
0000
0000
3000
0000
0000
0000
0012
0000
0000
0000
0120
0000
0003
0000
0000
1200
0030
0000
0000
0000
0000
2320
0000
0000
3030
0000
0000
0000
0000
0000
,
0000
1100
1100
1100
1100
1100
1100
1100
0000
0011
0011
0011
0011
0011
0011
0011
,
0000
0100
0100
0100
0100
0100
0100
0100
0000
0110
0110
0110
0110
0110
0110
0110
,
0000
1001
1001
1001
1001
1001
1001
1001
0000
0001
0001
0001
0001
0001
0001
0001
,
0000
1000
1000
1000
1000
1000
1000
1000
0000
0100
0100
0100
0100
0100
0100
0100
,
0000
0001
1010
0011
0110
0010
1100
0001
0010
0110
0011
0110
0011
1000
0110
0100
,
0011
0011
1010
0110
1011
0101
0110
0001
0111
1001
0111
0101
1011
1100
1011
1001
,
0111
1001
0111
1010
1101
1001
1110
1010
0111
1010
0111
0011
1110
0011
0110
1010
,
0011
1010
0111
1010
1001
1100
1011
1100
0110
1100
0111
0101
0111
1100
0111
0101
,
1001
1001
0111
0011
1101
0110
0111
1010
0110
0011
1010
0110
1011
0110
1110
0101
,
0110
1100
0111
0110
1011
0110
0111
1100
0110
0011
0110
0010
1010
0010
1101
1001
,
1100
1000
0010
0110
0011
1001
0111
1001
0101
0011
1110
0011
1110
0100
1101
0100
,
1010
1100
1011
0011
1010
0010
0101
0010
1010
1010
0111
1001
0111
0101
1110
0100
,
0101
0101
1100
0100
0011
1001
1100
1010
1001
1001
0111
0011
1101
0110
0101
1001
,
0011
1001
0111
1100
1011
1100
0111
1100
0110
1010
1011
1100
1011
0110
1011
0001
,
2002
0010
0100
0010
0010
0100
3113
1000
0221
1000
1001
1000
0001
1000
1331
0100
,
2012
0100
3113
1000
0221
1000
1331
0100
2012
0100
3113
1000
0221
1000
1331
0000
,
1000
1000
1000
1000
1000
1000
1000
1000
1000
1000
2001
0000
0201
0002
0310
3213
,
0301
0000
1210
0000
1021
0302
0100
2233
3310
0000
1012
0000
1120
2233
3010
0312
,
0103
0000
2012
0000
3120
2233
3001
0322
1033
0000
2012
3000
0120
1203
0301
2230
,
3301
0000
1022
0030
1220
2000
0033
3322
0133
0000
2110
0000
0121
3202
0300
0033
,
1111
1111
1111
1111
1111
1111
1111
1111
0000
0000
2001
0000
0121
3132
0013
2202
,
3313
0000
1120
0000
0102
2233
3301
2020
3031
0000
0211
0000
2011
3312
0103
2020
,
3130
0000
0112
0000
1120
1233
0301
2220
3331
0000
0211
0000
2012
3323
0130
2020
,
3031
0000
2112
3003
0220
2332
3013
0202
1303
0000
2011
0000
0211
3312
0003
0110
,
1001
1001
1001
1001
1001
1011
1101
0011
0000
2200
3312
0000
1120
2133
3010
0222
,
1333
2200
3312
0000
1120
2133
3010
0202
1303
0021
2131
0000
0221
3332
0003
1110
,
0202
1000
0010
1000
0010
1000
0313
0100
2021
0100
0001
0100
0001
0100
3031
0100
,
1022
0000
0000
0100
0000
0000
1033
0000
0000
0100
0000
0000
2201
0000
0000
0010
0000
0000
3301
0000
0000
0010
0000
0000
2110
0000
0000
0000
0020
0000
0000
0000
3000
0000
0200
0000
0030
0000
0002
0000
0000
0000
0303
0000
0000
0000
0000
0000
,
0000
0011
0011
0111
1011
0111
0011
0011
0000
1001
1110
1100
1100
1100
1110
1101
,
0000
0011
0110
0010
1010
0010
0110
0011
0000
1001
1101
1011
1001
1011
1101
1001
,
0000
0110
0110
0110
0110
1110
0110
0111
0000
0111
0111
0111
0111
1111
0111
0111
,
0000
0001
0011
0101
1001
0011
0101
0001
0000
0100
0110
1100
0100
0110
0101
0100
,
0000
0011
0110
0010
1010
0110
0010
0011
0000
0100
0110
0100
0101
0110
0100
1100
,
0000
1001
1100
1010
1000
1010
1100
1001
0000
1111
1111
1111
1111
1111
1111
1111
,
0000
1100
1100
1110
1100
1101
1100
1110
0000
0011
0011
0111
0011
1011
0011
0111
,
0000
1010
1010
1110
1010
1011
1010
1110
0000
0101
0101
0111
0101
1101
0101
0111
,
0000
1011
1011
1111
1011
1011
1011
1111
0000
1110
1110
1110
1110
1011
1110
0110
,
0000
1111
1111
1111
1111
1111
1111
1111
0000
1111
1111
1111
1111
0110
0110
0110
,
2002
0100
0010
0100
0010
0100
3013
0100
2021
0100
0001
0100
0001
0100
3031
0010
,
1202
0010
1303
0010
0221
1000
0331
0010
2201
0010
3301
0010
0122
0000
0033
0000
,
1000
1000
1000
1000
1000
0100
0100
0100
0100
0100
0110
0110
0110
0110
0110
0011
,
0011
0011
0011
0011
0110
0110
0110
0110
0110
1100
1100
1100
1100
1100
0110
0110
,
0110
0110
0110
0101
0101
0101
0101
0101
1010
1010
1010
1010
1010
0101
0101
0101
,
0101
0101
0001
0001
0001
0001
0001
0010
0010
0010
0010
0010
0100
0100
0100
0100
,
0100
1000
1000
1000
1000
1000
0100
0100
0100
0100
0100
0011
0011
0011
0011
0011
,
0110
0110
0110
0110
0110
1100
1100
1100
1100
1100
0110
0110
0110
0110
0110
0101
,
0101
0101
0101
0101
1110
1110
1110
1110
1110
0111
0111
0111
0111
0111
1111
1111
,
1111
1111
1111
0100
0100
0100
0100
0100
0010
0010
0010
0010
0010
0001
0001
0001
,
0001
0001
1000
1000
1000
1000
1000
0110
0110
0110
0110
0110
0011
0011
0011
0011
,
0011
1100
1100
1100
1100
1100
0110
0110
0110
0110
0110
1001
1001
1001
1001
1001
,
0101
0101
0101
0101
0101
0011
0011
0011
0011
0011
1100
1100
1100
1100
1100
0110
,
0110
0110
0110
0110
0011
0011
0011
0011
0011
1100
1100
1100
1100
1100
1100
1100
,
0001
0011
0101
1001
0101
0011
0101
1001
0101
0011
0101
1001
0101
0011
0101
1001
,
0101
0011
0101
1001
0101
0011
0101
1001
0101
0011
0101
1001
0101
0011
0101
1001
,
1001
0100
1001
0100
1001
0100
1001
0100
1001
0100
1001
0100
1001
0100
1001
0100
,
1000
0100
1000
0100
1000
0100
1000
0100
1000
0100
1000
0100
0010
0001
0010
0001
0010
0001
0010
0001
0010
0001
0010
0001
0010
0100
0010
0100
0010
0100
0010
0100
,
2002
0000
0000
0000
,
3003
0000
0000
0000
;
